Перейти к содержимому


!!! Только у нас на форуме !!!
Спектакли от дяди Пчёлки

для просмотра необходима регистрация
Фотография
- - - - -

Как объединить много файлов AVCHD в один?


  • Please log in to reply
14 ответов в этой теме

#1 Verendey

Verendey
  • Участник
  • 16 326 Сообщений:

Отправлено 28 ноя 2010 - 03:58

Добрые Люди!
Моя камера (Sony NEX VG10) разбивает файлы при записи (на карту SD) по 2гб... а короткие планы - каждый в отдельный файл...
в результате в проекте получается несколько сотен(!) файлов. Premiere при каждом открывании проекта проверяет их (пишет media is pending) На открытие проекта уходит несколько минут (5-7)...
Есть ли способ быстро и без потери качества объединить много файлов .MTS (AVCHD) в единый кусок?
  • 0

#2 Игорь М

Игорь М
  • Участник
  • 318 Сообщений:

Отправлено 28 ноя 2010 - 05:07

В премьере не выйдет,даже с установленным MC Codec Suite
Вот эти две говорят без перекодировки выводят,но сам не юзал.
Elecard AVC HD
CorelVideoStudio Pro X2
  • 0

#3 YNUS

YNUS
  • Участник
  • 3 311 Сообщений:

Отправлено 29 ноя 2010 - 07:46

Володя, Игорь предложил Elecard AVC HD Editor, простая, удобная программа. Посмотри описание тут.
  • 0

#4 mirror

mirror
  • Validating
  • 2 241 Сообщений:

Отправлено 29 ноя 2010 - 23:16

Пережимают... и та, и другая. Возможно, с определёнными файлами, с определённых камер эти программы и могут работать без пережатия, но не со всеми... это факт. Заставить их съесть свои файлы AVC я смог, но вывести без пережатия не получилось... с какими только параметрами не работал и в какие только контейнеры не перепаковывал... ни-фи-га... :(
  • 0

#5 Jurij

Jurij
  • Модераторы
  • 1 981 Сообщений:

Отправлено 30 ноя 2010 - 00:21

Попробуй переупаковать в этой бесплатной утилите tsMuxer
Прикрепленный файл  TS_Muxer2.jpg   175,46К   7 Количество загрузок:
Вначале добавить первый файл Add, затем все остальные join
Когда все файлы будут добавлены Start muxing

Прикрепленный файл  tsMuxe.rar   2,61МБ   18 Количество загрузок:

Неудобство в том что надо добавлять каждый файл отдельно, могли бы сделать объединить все файлы с папки по номерам в именах.
Если будет время сделаю.

Файлы tsMuxeR.exe и tsMuxerGUI.exe не разлучать.
Запускаем tsMuxerGUI.exe

Сообщение отредактировано Jurij: 30 ноя 2010 - 00:44

  • 0

#6 Verendey

Verendey
  • Участник
  • 16 326 Сообщений:

Отправлено 30 ноя 2010 - 01:29

я всё читаю))) и пока пытаюсь понять, что лучше...
***
а скажите - это только моя заморочка, или вы УЖЕ пользуетесь таким объединением?

Сообщение отредактировано Verendey: 30 ноя 2010 - 01:30

  • 0

#7 Jurij

Jurij
  • Модераторы
  • 1 981 Сообщений:

Отправлено 30 ноя 2010 - 01:36

tsMuxer_ом я уже давно пользуюсь. Так он работает без инсталляции и весит 2.66 MB чего тут думать пробовать надо :)

_http://www.smlabs.net/tsmuxer.html

Сообщение отредактировано Jurij: 30 ноя 2010 - 01:51

  • 0

#8 YNUS

YNUS
  • Участник
  • 3 311 Сообщений:

Отправлено 30 ноя 2010 - 02:55

Пережимают... и та, и другая.

:) да, на деньги поспорим? ;)

Заставить их съесть свои файлы AVC я смог

Подробней плз.

а скажите - это только моя заморочка, или вы УЖЕ пользуетесь таким объединением?

Пользуюсь частенько, примерно раз в месяц, раньше tsMuxer юзал, но HD Editor поприятней мордой.

Сообщение отредактировано YNUS: 30 ноя 2010 - 02:49

  • 0

#9 mirror

mirror
  • Validating
  • 2 241 Сообщений:

Отправлено 30 ноя 2010 - 03:18

да, на деньги поспорим?

Вань, я же выше сделал поправку на то, что возможно программы заточены под определённый стандарт... Хочешь, я выложу свой файл, а ты с ним попробуешь?

Подробней плз.

Тот же HD Editor напрочь отказывается принимать видео в контейнере mpeg4. Пришлось либо демуксить его и грузить отдельно поток H.264, либо перепаковывать тем же tsMuxer в понятный ему контейнер, тот же ts...
Только ничего этого не дало... просчёт был долгим...
  • 0

#10 YNUS

YNUS
  • Участник
  • 3 311 Сообщений:

Отправлено 30 ноя 2010 - 04:31

Не из недоверия, но скинь плз файл, на хар-ки посмотреть что с ним, из-за чего бяка интересно.
  • 0

#11 Verendey

Verendey
  • Участник
  • 16 326 Сообщений:

Отправлено 30 ноя 2010 - 04:44

а что вы думаете по поводу программки multiAVCHD ?
  • 0

#12 mirror

mirror
  • Validating
  • 2 241 Сообщений:

Отправлено 30 ноя 2010 - 21:18

Ваня, вот кусочек: http://zalil.ru/30053780
  • 0

#13 YNUS

YNUS
  • Участник
  • 3 311 Сообщений:

Отправлено 01 дек 2010 - 04:01

Мда, неформат, для BD 29,97 fps нужен, у тебя 30. Переконвертиловал в 29,97 и тогда пошло :(
  • 0

#14 mirror

mirror
  • Validating
  • 2 241 Сообщений:

Отправлено 01 дек 2010 - 19:57

Тогда нужно забивать на поиски, видать бесполезно... без пережатия не обойтись. :unsure:

Эх, зря не поспорил... :D

Сообщение отредактировано mirror: 01 дек 2010 - 19:59

  • 0

#15 Jurij

Jurij
  • Модераторы
  • 1 981 Сообщений:

Отправлено 09 июн 2011 - 16:39

После объединения в ранее мной рекомендованном tsMuxerе файлов m2ts

формат : BDAV
Формат/Информация : Blu-ray Video
Размер файла : 57,2 Мбайт
Продолжительность : 18 с.
Общий поток : 26,4 Мбит/сек
Максимальный общий битрейт : 28,0 Мбит/сек

Видео
Идентификатор : 4113 (0x1011)
Идентификатор меню : 1 (0x1)
Формат : AVC
Формат/Информация : Advanced Video Codec
Профиль формата : High@L4.2
Параметр CABAC формата : Да
Параметр ReFrames формата : 2 кадра
Параметры GOP формата : M=1, N=24
Идентификатор кодека : 27
Продолжительность : 18 с.
Вид битрейта : Переменный
Битрейт : 24,8 Мбит/сек
Максимальный битрейт : 26,0 Мбит/сек
Ширина : 1920 пикс.
Высота : 1080 пикс.
Соотношение сторон : 16:9
Частота кадров : 50,000 кадр/сек
Цветовое пространство : YUV
Подвыборка цветности : 4:2:0
Битовая глубина : 8 бит
Тип развёртки : Прогрессивная
Бит/(Пиксели*Кадры) : 0.240
Размер потока : 54,0 Мбайт (94%)

Аудио
Идентификатор : 4352 (0x1100)
Идентификатор меню : 1 (0x1)
Формат : AC-3
Формат/Информация : Audio Coding 3
Расширение режима : CM (complete main)
Идентификатор кодека : 129
Продолжительность : 18 с.
Вид битрейта : Постоянный
Битрейт : 448 Кбит/сек
Каналы : 6 каналов
Расположение каналов : Front: L C R, Side: L R, LFE
Частота : 48,0 КГц
Битовая глубина : 16 бит
Метод сжатия : С потерями
Размер потока : 998 Кбайт (2%)

Текст
Идентификатор : 4608 (0x1200)
Идентификатор меню : 1 (0x1)
Формат : PGS
Идентификатор кодека : 144
Продолжительность : 17 с.

Рассинхронизация, звук опережает видео :(

=======================================================================

Рекомендую Elecard Converter Studio ProHD
В параметрах задачи видео и звука надо выбирать прямое копирование.
Удобно можно выбрать все файлы сразу которые надо соединить.
Минус в моём случае после соединения теряются титры в формате PGS.

Результат:
Формат : MPEG-TS
Размер файла : 796 Мбайт
Продолжительность : 4 м. 20 с.
Общий поток : 25,7 Мбит/сек

Видео
Идентификатор : 1001 (0x3E9)
Идентификатор меню : 1 (0x1)
Формат : AVC
Формат/Информация : Advanced Video Codec
Профиль формата : High@L4.2
Параметр CABAC формата : Да
Параметр ReFrames формата : 2 кадра
Параметры GOP формата : M=1, N=24
Идентификатор кодека : 27
Продолжительность : 4 м. 19 с.
Вид битрейта : Переменный
Максимальный битрейт : 26,0 Мбит/сек
Ширина : 1920 пикс.
Высота : 1080 пикс.
Соотношение сторон : 16:9
Частота кадров : 50,000 кадр/сек
Цветовое пространство : YUV
Подвыборка цветности : 4:2:0
Битовая глубина : 8 бит
Тип развёртки : Прогрессивная

Аудио
Идентификатор : 1002 (0x3EA)
Идентификатор меню : 1 (0x1)
Формат : AC-3
Формат/Информация : Audio Coding 3
Идентификатор кодека : 129
Продолжительность : 4 м. 19 с.
Метод сжатия : С потерями
  • 0


0 человек читают эту тему

0 пользователей, 0 гостей, 0 скрытых пользователей

Rambler's Top100