Перейти к содержимому


!!! Только у нас на форуме !!!
Спектакли от дяди Пчёлки

для просмотра необходима регистрация
Фотография
- - - - -

Не получается нормально конвертировать mp4 в Avi


  • Please log in to reply
4 ответов в этой теме

#1 maxik

maxik
  • Участниk
  • 3 Сообщений:

Отправлено 04 фев 2011 - 03:49

Всем привет. Интересует вот какой вопрос, может кто сталкивался ?
Исходник видео (mp4) снимался на моб.тел Nokia 5530, и вот у меня таких файлов какое то кол-во, их нужно конвертировать в AVI, но какими бы я конвертерами не пользовался получается на выходе AVI файл с нормальным звуком и с очень быстрым видео потоком + ещё урезанный. Как можно выйти из положения.
Вот исходник (mp4) -> ИСХОДНИК
Вот то что получается у меня на выходе в AVI -> НА ВЫХОДЕ
  • 0

#2 Зос

Зос
  • Модераторы
  • 4 146 Сообщений:

Отправлено 04 фев 2011 - 11:00

А зачем их конвертить в ави? Это и так ави. Если очень хочется - переименуй расширение. Если надо склеить - попробуй virtualdub. По видео поставь direct srreem (без пережатия). А еще есть конвертер для мобильной хрени - xilisoft. Он конвертит всю эту бяку в приемлемый вид. А твоя беда скорее всего состоит в том, что исходники 10 или 15 кадров/сек, а при конвертации ставишь 25 или 30. Так нельзя.


  • 0

#3 maxik

maxik
  • Участниk
  • 3 Сообщений:

Отправлено 04 фев 2011 - 17:58

 
На счёт частоты кадров, так этот тел. (NOKIA 5530) снимает с частотой 30 к/с, и не обязательно в Avi (просто мне нужно в AVi) а в другой какой то формат, всё равно конвертирует вот так по тупому.
Вот информация исходника этого самого MP4

Format                           : MPEG-4
Format profile              : Base Media / Version 2
Codec ID                        : mp42
File size                        : 8.24 MiB
Duration                         : 27s 438ms
Overall bit rate                 : 2 521 Kbps

Video
ID                               : 1
Format                           : MPEG-4 Visual
Format profile                   : Simple@L4a
Format settings, BVOP            : No
Format settings, QPel            : No
Format settings, GMC             : No warppoints
Format settings, Matrix          : Default (H.263)
Codec ID                         : 20
Duration                         : 27s 438ms
Bit rate mode                    : Variable
Bit rate                         : 2 418 Kbps
Nominal bit rate                 : 2 700 Kbps
Maximum bit rate                 : 3 000 Kbps
Width                            : 640 pixels
Height                           : 352 pixels
Display aspect ratio             : 16:9
Frame rate mode                  : Variable
Frame rate                       : 30.141 fps
Minimum frame rate               : 19.737 fps
Maximum frame rate               : 61.224 fps
Color space                      : YUV
Chroma subsampling               : 4:2:0
Bit depth                        : 8 bits
Scan type                        : Progressive
Bits/(Pixel*Frame)               : 0.356
Stream size                      : 7.91 MiB (96%)

Audio
ID                               : 2
Format                           : AAC
Format/Info                      : Advanced Audio Codec
Format version                   : Version 4
Format profile                   : LC
Format settings, SBR             : No
Codec ID                         : 40
Duration                         : 27s 434ms
Bit rate mode                    : Constant
Bit rate                         : 96.0 Kbps
Channel(s)                       : 1 channel
Channel positions                : Front: C
Sampling rate                    : 48.0 KHz
Stream size                      : 322 KiB (4%)

Сообщение отредактировано Зос: 06 фев 2011 - 16:35

  • 0

#4 maxik

maxik
  • Участниk
  • 3 Сообщений:

Отправлено 04 фев 2011 - 18:31

Всё спасибо разобрался, помогла прога Format Factory
  • 0

#5 3la3ku

3la3ku
  • Участник
  • 1 218 Сообщений:

Отправлено 04 фев 2011 - 23:16

вот меня всегда интересовал вопрос - ну и куда вот такую хрень можно вставить
Изображение
это еще по божески - а мне вот на днях тоже приволокли файлы с телефона 320х258 14fps и просят согнать на DVD :whistling: а то говорят хочется на плазме посмотреть а не в телефоне :hz:
  • 0




0 человек читают эту тему

0 пользователей, 0 гостей, 0 скрытых пользователей

Rambler's Top100