Перейти к содержимому


!!! Только у нас на форуме !!!
Спектакли от дяди Пчёлки

для просмотра необходима регистрация
Фотография
- - - - -

Проблемы с рендерингом без перекодирования (Sony DSC-TX7 mp4 720p)


  • Please log in to reply
3 ответов в этой теме

#1 Foma2

Foma2
  • Участник
  • 34 Сообщений:

Отправлено 07 июн 2011 - 06:10

Недавно приобрел цифровую камеру Sony DSC-TX7. Очень положительные впечатления. Сейчас пытаюсь прорендерить отснятое видео без перекодирования.

Видео снимаю в следующем формате (согласно установкам камеры) : Movie recording format (MP4) - MP4 6M - 6 Mbps - 1280x720

Теперь что я делаю и собственно что хочу получить :
1. помещаю видео файл на таймлинию.
2. открываю окно свойств проекта (Alt+Enter) затем закладку Video.
3. поле Template : HDV 720-25p (1280x720, 25.000 fps), жму OK.
4. иду в меню File/Render As, затем в списке "Тип файла" выбраю "Sony AVC (*.mp4,*.m2ts,*.avc)".
5. в Templates выбираю единственный отмеченный знаком равно (то есть тот при котором не будет проузводится рендеринг) : =Internet 1280x720-25p
6. нажимаем Save. Заветной надписи "No Recompression Required" на экране не наблюдаем.
7. ничего страшного, смотрим параметры выходного видео файла через MediaInfo. Видим что Format profile поменялся с Main@L4.0 (как было в входном файле) на High@L4.0.
8. Идем в пункт 5, а затем в Custom в Profile выставляем Main.
9. нажимаем Save. Опять тот же результат - надписи No Recompression Required на экране нет. Идет перекодирование. :(

В чем дело не могу понять. если кто знает или сталкивался с подобным отпишите пожалуйста. спасибо заранее. :(

Ниже я привел полные данные по видео файлам согласно MediaInfo : входной, Internet 1280x720-25p default (установки по умолчанию) и Интернет Internet 1280x720-25p custom (установки профиля изменены на Main@L4.0).

ps1 Sony Vegas Pro 10.0c Build 469 установлен на абсолютно "чистой" Windows XP SP3.

ps2 До того как попробовать Sony Vegas работал с DV tape форматом в Pinnacle Studio 11, но насколько я знаю даже последняя версия не поддерживает рендеринг без рекомпрессии даже если задать все параметры видео на выходе идентичными входному.
===========================
General
Complete name : G:\SVP_in\Test\MP4 6M - 001 - MAH00320.MP4
Format : MPEG-4
Format profile : Sony PSP
Codec ID : MSNV
File size : 5.94 MiB
Duration : 8s 160ms
Overall bit rate : 6 102 Kbps
Encoded date : UTC 2010-09-22 12:39:36
Tagged date : UTC 2010-09-22 12:39:44

Video
ID : 1
Format : AVC
Format/Info : Advanced Video Codec
Format profile : Main@L4.0
Format settings, CABAC : Yes
Format settings, ReFrames : 2 frames
Format settings, GOP : M=2, N=12
Codec ID : avc1
Codec ID/Info : Advanced Video Coding
Duration : 8s 160ms
Bit rate mode : Variable
Bit rate : 5 968 Kbps
Maximum bit rate : 16.0 Mbps
Width : 1 280 pixels
Height : 720 pixels
Display aspect ratio : 16:9
Frame rate mode : Constant
Frame rate : 25.000 fps
Color space : YUV
Chroma subsampling : 4:2:0
Bit depth : 8 bits
Scan type : Progressive
Bits/(Pixel*Frame) : 0.259
Stream size : 5.80 MiB (98%)
Encoded date : UTC 2010-09-22 12:39:36
Tagged date : UTC 2010-09-22 12:39:44

Audio
ID : 2
Format : AAC
Format/Info : Advanced Audio Codec
Format profile : LC
Codec ID : 40
Duration : 8s 149ms
Bit rate mode : Constant
Bit rate : 128 Kbps
Channel(s) : 2 channels
Channel positions : Front: L R
Sampling rate : 48.0 KHz
Compression mode : Lossy
Stream size : 128 KiB (2%)
Encoded date : UTC 2010-09-22 12:39:36
Tagged date : UTC 2010-09-22 12:39:44
===========================
General
Complete name : F:\SVP_out\001_03_default.mp4
Format : MPEG-4
Format profile : Base Media / Version 2
Codec ID : mp42
File size : 7.14 MiB
Duration : 8s 160ms
Overall bit rate : 7 342 Kbps
Encoded date : UTC 2011-06-07 00:01:54
Tagged date : UTC 2011-06-07 00:01:54

Video
ID : 2
Format : AVC
Format/Info : Advanced Video Codec
Format profile : High@L4.0
Format settings, CABAC : Yes
Format settings, ReFrames : 2 frames
Format settings, GOP : M=2, N=13
Muxing mode : Container profile=Baseline@3.1
Codec ID : avc1
Codec ID/Info : Advanced Video Coding
Duration : 8s 160ms
Bit rate mode : Variable
Bit rate : 7 208 Kbps
Maximum bit rate : 16.0 Mbps
Width : 1 280 pixels
Height : 720 pixels
Display aspect ratio : 16:9
Frame rate mode : Constant
Frame rate : 25.000 fps
Color space : YUV
Chroma subsampling : 4:2:0
Bit depth : 8 bits
Scan type : Progressive
Bits/(Pixel*Frame) : 0.313
Stream size : 7.01 MiB (98%)
Language : English
Encoded date : UTC 2011-06-07 00:01:54
Tagged date : UTC 2011-06-07 00:01:54

Audio
ID : 1
Format : AAC
Format/Info : Advanced Audio Codec
Format profile : LC
Codec ID : 40
Duration : 8s 128ms
Bit rate mode : Constant
Bit rate : 128 Kbps
Channel(s) : 2 channels
Channel positions : Front: L R
Sampling rate : 48.0 KHz
Compression mode : Lossy
Stream size : 127 KiB (2%)
Language : English
Encoded date : UTC 2011-06-07 00:01:54
Tagged date : UTC 2011-06-07 00:01:54
===========================
General
Complete name : F:\SVP_out\001_03_custom_2.mp4
Format : MPEG-4
Format profile : Base Media / Version 2
Codec ID : mp42
File size : 7.14 MiB
Duration : 8s 160ms
Overall bit rate : 7 342 Kbps
Encoded date : UTC 2011-06-07 00:22:39
Tagged date : UTC 2011-06-07 00:22:39

Video
ID : 2
Format : AVC
Format/Info : Advanced Video Codec
Format profile : High@L4.0
Format settings, CABAC : Yes
Format settings, ReFrames : 2 frames
Format settings, GOP : M=2, N=13
Muxing mode : Container profile=Main@3.1
Codec ID : avc1
Codec ID/Info : Advanced Video Coding
Duration : 8s 160ms
Bit rate mode : Variable
Bit rate : 7 208 Kbps
Maximum bit rate : 16.0 Mbps
Width : 1 280 pixels
Height : 720 pixels
Display aspect ratio : 16:9
Frame rate mode : Constant
Frame rate : 25.000 fps
Color space : YUV
Chroma subsampling : 4:2:0
Bit depth : 8 bits
Scan type : Progressive
Bits/(Pixel*Frame) : 0.313
Stream size : 7.01 MiB (98%)
Language : English
Encoded date : UTC 2011-06-07 00:22:39
Tagged date : UTC 2011-06-07 00:22:39

Audio
ID : 1
Format : AAC
Format/Info : Advanced Audio Codec
Format profile : LC
Codec ID : 40
Duration : 8s 128ms
Bit rate mode : Constant
Bit rate : 128 Kbps
Channel(s) : 2 channels
Channel positions : Front: L R
Sampling rate : 48.0 KHz
Compression mode : Lossy
Stream size : 127 KiB (2%)
Language : English
Encoded date : UTC 2011-06-07 00:22:39
Tagged date : UTC 2011-06-07 00:22:39
===========================

  • 0

#2 mirror

mirror
  • Validating
  • 2 241 Сообщений:

Отправлено 07 июн 2011 - 10:26

Возможно разочарую... но ни одна монтажка не редактирует AVCHD без пережатия. Вегас не исключение. :)
  • 0

#3 Foma2

Foma2
  • Участник
  • 34 Сообщений:

Отправлено 08 июн 2011 - 14:17

а вот здесь вроде как все получается. Правда пример не с 720p а 1080-50i :
http://www.ixbt.com/.../vegas9.shtml#4
  • 0

#4 mirror

mirror
  • Validating
  • 2 241 Сообщений:

Отправлено 08 июн 2011 - 20:43

А вот это внимательно читали?
В результате этих несложных экспериментов можно сделать некоторые выводы:
•сохранение видео без пересжатия поддерживается не для всех AVCHD-камер (возможно, что пока)
•нет возможности указать программе, чтобы она автоматически настроила параметры кодирования по какому-либо из исходных видеороликов (возможно, это бы решило проблему с тем, что видео с некоторых камер перекодирутся полностью только потому, что неизвестно, какие в точности настройки кодирования нужно сделать)
•пересжатия совсем нет только в случае, если ролики просто соединяются на дорожке "встык", без каких-либо редактирований и наложений
•если ролик "подрезан" или изменен (например, наложением перехода) только с конца, то начало ролика не пересжимается (однако, конец пересжимается даже в случае его простой "подрезки")
•если ролик "подрезан" или изменен только с начала, то производится его полное пересжатие

Ну и кому нужно такое псевдо НЕ пересжатие? Я могу с таким же успехом перекопировать файлы напрямую с винта на винт, а не через Вегас. Потому как любое малейшее изменение ведёт к пересжатию материала. А как можно представить монтаж даже без элементарной подрезки?
Все эти эксперименты и закончились на этой версии... больше Сони не вводила в заблуждение своих пользователей и все последующие версии (включая и последнюю 10d) пережимают видео AVCHD... как и другие программы...
  • 0




0 человек читают эту тему

0 пользователей, 0 гостей, 0 скрытых пользователей

Rambler's Top100