Перейти к содержимому


!!! Только у нас на форуме !!!
Спектакли от дяди Пчёлки

для просмотра необходима регистрация
Фотография
- - - - -

Эдиус 5.51

не могшу подобрать настройки

  • Please log in to reply
10 ответов в этой теме

#1 Advent

Advent
  • Участник
  • 3 075 Сообщений:

Отправлено 06 дек 2012 - 15:03

http://depositfiles....files/t12410qqg


принесли на монтаж такие файлы, камеры не наши были, поэтому и не знаю. Как ни пытаюсь настроить ТЛ, все равно желтенький остается. Кто знает как надо сделать????

приведу и данные медиаинфо, но говорят что и он ошибается


Общее
Идентификатор : 0 (0x0)
Полное имя : D:\SB_18\VIDEO\1\00001.MTS
Формат : BDAV
Формат/Информация : Blu-ray Video
Размер файла : 20,7 Мбайт
Продолжительность : 7 с. 740 мс.
Режим общего битрейта : Переменный
Общий поток : 22,4 Мбит/сек
Максимальный общий битрейт : 24,0 Мбит/сек

Видео
Идентификатор : 4113 (0x1011)
Идентификатор меню : 1 (0x1)
Формат : AVC
Формат/Информация : Advanced Video Codec
Профиль формата : High@L4.0
Параметр CABAC формата : Да
Параметр ReFrames формата : 2 кадра
Идентификатор кодека : 27
Продолжительность : 7 с. 720 мс.
Вид битрейта : Переменный
Битрейт : 21,2 Мбит/сек
Максимальный битрейт : 22,0 Мбит/сек
Ширина : 1920 пикселей
Высота : 1080 пикселей
Соотношение сторон : 16:9
Частота кадров : 25,000 кадров/сек
Цветовое пространство : YUV
Субдискретизация насыщенности : 4:2:0
Битовая глубина : 8 бит
Тип развёртки : Прогрессивная
Бит/(Пиксели*Кадры) : 0.410
Размер потока : 19,5 Мбайт (95%)

Аудио
Идентификатор : 4352 (0x1100)
Идентификатор меню : 1 (0x1)
Формат : AC-3
Формат/Информация : Audio Coding 3
Расширение режима : CM (complete main)
Идентификатор кодека : 129
Продолжительность : 7 с. 808 мс.
Вид битрейта : Постоянный
Битрейт : 256 Кбит/сек
Каналы : 2 канала
Расположение каналов : Front: L R
Частота : 48,0 КГц
Битовая глубина : 16 бит
Метод сжатия : С потерями
Задержка видео : -80 мс.
Размер потока : 244 Кбайт (1%)


камера hdr ax 2000 eh
  • 0

#2 Advent

Advent
  • Участник
  • 3 075 Сообщений:

Отправлено 06 дек 2012 - 22:29

ни одного эдиусовца не осталось, видать)
  • 0

#3 DiSel

DiSel
  • Модераторы
  • 1 336 Сообщений:

Отправлено 06 дек 2012 - 23:04

Жёлтенький остаётся - ты про полоску на ТЛ над файлом?

Оффтоп: знакомые медведи Fisher Price :)

По делу: у меня все FullHD материалы желтенькие до тех пор, пока Edius не проиграет их.
  • 0

#4 Samosha75

Samosha75
  • Участник
  • 1 274 Сообщений:

Отправлено 06 дек 2012 - 23:14

Это не отрендериные файлы, при проигрывании эдиус их пересчитывает, если красные то он их складывает в папку рендер. На жёлтые можно не обращать внимание, это не критично.
  • 0

#5 Advent

Advent
  • Участник
  • 3 075 Сообщений:

Отправлено 06 дек 2012 - 23:17

просто с материала с ех1-3 таймлайн как положено ( и тоже хд или фуллхд). а тут желтый.

да еще и в прогрессиве принесли, дополнительный головняк
  • 0

#6 Samosha75

Samosha75
  • Участник
  • 1 274 Сообщений:

Отправлено 07 дек 2012 - 00:26

если не красный и не тормозит, всё нормально. У эдиуса есть что-то там не сходится по его параметрам он показывает жёлтым. я на них внимания не обращаю, после финального рендера всё будет хорошо.
  • 0

#7 Advent

Advent
  • Участник
  • 3 075 Сообщений:

Отправлено 07 дек 2012 - 02:06

ну кто скачал и посмотрел?) какие установки поставили, поделитесь)))
  • 0

#8 pandig

pandig
  • Участник
  • 69 Сообщений:

Отправлено 07 дек 2012 - 02:53

ну кто скачал и посмотрел?) какие установки поставили, поделитесь)))


У меня стоит Edius 6.08.
На ТЛ у всех клипов (в том числе и у Вашего) на видео дорожке между метками "In" и "Out" цвет всегда желтый, а на аудио - зеленый.
За пределами "In" и "Out" цвет видео - темно-желтый.
Исключение из правила - искусственно созданные клипы (Color Matte, Title, ...) у которых цвет другой.
А если речь идет о полоске над шкалой времени, то сперва она желтая, а после проигрывания (сразу же или спустя некоторое время) она становится синей.
В тестовом проекте использовал стандартный Edius-овский видео пресет "HD 1920 x 1080 25p".

Сообщение отредактировано pandig: 07 дек 2012 - 03:21

  • 0

#9 Advent

Advent
  • Участник
  • 3 075 Сообщений:

Отправлено 07 дек 2012 - 11:52

pandig
спасибо)
а у меня всегда зеленый был
до этого момента)
выложу для эксперимента файл с ех камеры
вот там у меня всё в норме
посмотрите как будет у вас

http://depositfiles....files/pcdli6h47
  • 0

#10 pandig

pandig
  • Участник
  • 69 Сообщений:

Отправлено 07 дек 2012 - 21:17

а у меня всегда зеленый был
до этого момента)
выложу для эксперимента файл с ех камеры
вот там у меня всё в норме
посмотрите как будет у вас


Посмотрел . И здесь у меня цвета аналогичные, как и в предыдущем клипе.
Видео пресет "HD 1440 x 1080 50i".
  • 0

#11 Advent

Advent
  • Участник
  • 3 075 Сообщений:

Отправлено 07 дек 2012 - 22:40

странно у вас.
у меня как родненькие ложатся с ех на ТЛ 1440Х1080 50и.
  • 0




0 человек читают эту тему

0 пользователей, 0 гостей, 0 скрытых пользователей

Rambler's Top100