Перейти к содержимому


!!! Только у нас на форуме !!!
Спектакли от дяди Пчёлки

для просмотра необходима регистрация
Фотография
- - - - -

Портится качество при импорте исходников в Edius 6

качество импорт xvid

  • Please log in to reply
3 ответов в этой теме

#1 popov654

popov654
  • Участниk
  • 3 Сообщений:

Отправлено 26 июн 2015 - 08:58

Всем доброго времени суток,

 

У меня при импорте в проект сильно портится качество картинки. не знаю, было ли раньше, монтирую Edius давно, и 6-ой версией уже пользуюсь не первый день, но раньше не замечал проблемы. Впрочем, новых кодеков вроде бы не ставил (ну разве что обновил за это время версию K-Lite Codec Pack на более новую). Так что видимо, раньше просто не вглядывался. Имеем: Edius 6.0, исходники в формате XviD снятые программой Bandicam с переменным битрейтом (до 20 Мбит/с в пике). В плеере всё отображается норм, но на превью (в том числе если сделать полноэкранный просмотр) в Edius идёт "лестница", как будто картинку уменьшили ровно в два раза, а потом сделали апскейл. Смотрится кошмарно это.

 

Проверял настройки проекта (разрешение стоит верное), пробовал менять кодек рендеринга - эффекта не было. От формата экспорта тоже не зависит - лестница появляется что в Canopus Lossless, что в Canopus HQ AVI. Наконец, увидел, что если выбрать воспроизведение исходника в окне Bin (Show in Player) - то там проблема уже есть, то есть бьётся картинка на этапе раннего импорта, видимо, модуль, осуществляющий чтение, как-то косячит. Можно ли как-то справиться с этой проблемой? =(

 

 

 

Вот иллюстрация косяка

 

 

исходный кадр:

 

http://i72.fastpic.r...bebec48b87d.png

 

кадр после импорта в Edius:

 

http://i69.fastpic.r...543ba24b532.png

 

 

Обратите внимание на кошмарную пиксельную "лестницу" на буквах. Настройки проекта, как я уже говорил, корректные, даунскейлинга быть не должно.

 


  • 0

#2 DiSel

DiSel
  • Модераторы
  • 1 322 Сообщений:

Отправлено 26 июн 2015 - 11:23

Свойства исходника и проекта какие?
  • 0

#3 popov654

popov654
  • Участниk
  • 3 Сообщений:

Отправлено 30 июн 2015 - 17:50

Прикрепляю данные

MediaInfo:

General
Complete name                            : G:\Game\GTA SA\gta_sa 2015-06-24 00-34-29-135.avi
Format                                   : AVI
Format/Info                              : Audio Video Interleave
Format profile                           : OpenDML
File size                                : 2.19 GiB
Duration                                 : 20mn 13s
Overall bit rate                         : 15.5 Mbps
Writing application                      : BandiAviMuxer 1.0

Video
ID                                       : 0
Format                                   : MPEG-4 Visual
Format profile                           : Simple@L1
Format settings, BVOP                    : Yes
Format settings, QPel                    : No
Format settings, GMC                     : No warppoints
Format settings, Matrix                  : Default (H.263)
Codec ID                                 : XVID
Codec ID/Hint                            : XviD
Duration                                 : 20mn 13s
Bit rate                                 : 15.3 Mbps
Width                                    : 1 280 pixels
Height                                   : 768 pixels
Display aspect ratio                     : 5:3
Frame rate                               : 30.000 fps
Color space                              : YUV
Chroma subsampling                       : 4:2:0
Bit depth                                : 8 bits
Scan type                                : Progressive
Compression mode                         : Lossy
Bits/(Pixel*Frame)                       : 0.520
Stream size                              : 2.16 GiB (99%)

Audio
ID                                       : 1
Format                                   : MPEG Audio
Format version                           : Version 1
Format profile                           : Layer 2
Codec ID                                 : 50
Duration                                 : 20mn 13s
Bit rate mode                            : Constant
Bit rate                                 : 192 Kbps
Channel(s)                               : 2 channels
Sampling rate                            : 48.0 KHz
Compression mode                         : Lossy
Stream size                              : 27.8 MiB (1%)
Alignment                                : Aligned on interleaves
Interleave, duration                     : 24 ms (0.72 video frame)
Interleave, preload duration             : 24 ms
Project settings:

Video
   Frame Size : 1280 x 768
   Frame Rate : 30.00
   Aspect Ratio : 1.0000
   Field order : Progressive
   Quantization Bit Rate : 8Bit
Audio
   Sampling Rate : 44100Hz
   Quantization Bit Rate : 16 Bit
   Channel : 2
Setup
   Render format : Canopus Lossless AVI
   Over Scan Size : 3 %
   Audio Reference Level : -20.0dB

Кстати, при конвертации исходника в Canopus Lossless - проблемы нет. То есть именно с кодеком что-то, который Edius определяет как DirectShow stream. Я примерно знаю, что такое фильтры DirectShow, но очень поверхностно, поэтому любому ликбезу буду рад. Но в любом случае, в отличие от WMV и MPEG2, заставить Edius видеть Xvid как Xvid (или MPEG4) мне не удалось. Инсталяция Xvid кодека в виде VFW с сайта не помогает :(


  • 0

#4 popov654

popov654
  • Участниk
  • 3 Сообщений:

Отправлено 01 июл 2015 - 19:19

Проблема решена: http://forum.videoed...порте/?p=588458


  • 0





Also tagged with one or more of these keywords: качество, импорт, xvid

0 человек читают эту тему

0 пользователей, 0 гостей, 0 скрытых пользователей

Rambler's Top100