Перейти к содержимому


!!! Только у нас на форуме !!!
Спектакли от дяди Пчёлки

для просмотра необходима регистрация
Фотография
- - - - -

mov не ложится на тл


  • Please log in to reply
9 ответов в этой теме

#1 Зос

Зос
  • Модераторы
  • 4 280 Сообщений:

Отправлено 11 мар 2017 - 10:14

дали мне мовики склеить. АР CS 5.5 не хочет видео класть на тл. только звук. в свойствах квиктайм ругается: This is a referencing movie. No further detail is available.

это квиктайм кривой или защита на файлах? Или еще что?


  • 0

#2 Sego

Sego
  • Модераторы
  • 14 008 Сообщений:

Отправлено 11 мар 2017 - 11:47

*mov - контейнер, как и *avi, что внутри? Медиаинфо сделай, выложи...


  • 0

#3 Kolobokk

Kolobokk
  • Участник
  • 1 999 Сообщений:

Отправлено 11 мар 2017 - 11:50

Вроде Adobe хвасталась, что последний AP уже не нуждается в QuickTime. А перепаковать в MP4 пробовали... Когда-то мне это помогло.
  • 0

#4 jurisviii

jurisviii
  • Участник
  • 3 194 Сообщений:

Отправлено 11 мар 2017 - 12:56

This is a referencing movie

может обозначать, что внутри мовика ссылка на внешний видеофайл, который наверно отсутствует.


  • 1

#5 Зос

Зос
  • Модераторы
  • 4 280 Сообщений:

Отправлено 11 мар 2017 - 19:58

ну да, скачано с яндекс диска... и как тогда?

медиаинфо.... сейчас поставлю... дома нет своего компа. снято на никон 7100

kolobokk:

это ж cs5.5


бщее
Полное имя                               : D:\проекты\видео проект\проект 173.MOV
Формат                                   : MPEG-4
Профиль формата                          : QuickTime
Идентификатор кодека                     : qt   2007.09 (qt  /niko)
Размер файла                             : 61,6 Мбайт
Продолжительность                        : 23 с. 223 мс.
Общий поток                              : 22,3 Мбит/сек
Дата кодирования                         : UTC 2017-03-10 12:01:16
Дата пометки                             : UTC 2017-03-11 04:49:00
NCDT                                     : NCTG
 
Видео
Идентификатор                            : 1
Формат                                   : AVC
Формат/Информация                        : Advanced Video Codec
Профиль формата                          : High@L4.1
Параметр CABAC формата                   : Да
Параметр ReFrames формата                : 2 кадра
Параметр GOP формата                     : M=3, N=15
Идентификатор кодека                     : avc1
Идентификатор кодека/Информация          : Advanced Video Coding
Продолжительность                        : 23 с. 223 мс.
Битрейт                                  : 20,6 Мбит/сек
Ширина                                   : 1920 пикселей
Высота                                   : 1080 пикселей
Соотношение сторон                       : 16:9
Режим частоты кадров                     : Постоянный
Частота кадров                           : 29,970 (30000/1001) кадров/сек
Цветовое пространство                    : YUV
Субдискретизация насыщенности            : 4:2:0
Битовая глубина                          : 8 бит
Тип развёртки                            : Прогрессивная
Бит/(Пиксели*Кадры)                      : 0.331
Размер потока                            : 57,0 Мбайт (93%)
Язык                                     : English
Дата кодирования                         : UTC 2017-03-10 12:01:16
Дата пометки                             : UTC 2017-03-10 12:01:16
Цветовой диапазон                        : Full
Основные цвета                           : BT.709
Коэффициенты матрицы                     : BT.601
colour_primaries_Original                : BT.709
transfer_characteristics_Original        : BT.470 System M
matrix_coefficients_Original             : BT.601
 
Аудио
Идентификатор                            : 2
Формат                                   : PCM
Параметр Endianness формата              : Little
Параметр Sign формата                    : Signed
Идентификатор кодека                     : sowt
Продолжительность                        : 23 с. 30 мс.
Вид битрейта                             : Постоянный
Битрейт                                  : 1536 Кбит/сек
Каналы                                   : 2 канала
Расположение каналов                     : Front: L R
Частота                                  : 48,0 КГц
Битовая глубина                          : 16 бит
Размер потока                            : 4,22 Мбайт (7%)
Язык                                     : English
Дата кодирования                         : UTC 2017-03-10 12:01:16
Дата пометки                             : UTC 2017-03-10 12:01:16

  • 0

#6 Зос

Зос
  • Модераторы
  • 4 280 Сообщений:

Отправлено 14 мар 2017 - 18:22

в общем, по кривое. сделал на другом компе.


  • 0

#7 Sego

Sego
  • Модераторы
  • 14 008 Сообщений:

Отправлено 15 мар 2017 - 00:53

так... перепаковал бы да и все, может и по кривое, хз:)


  • 0

#8 Зос

Зос
  • Модераторы
  • 4 280 Сообщений:

Отправлено 15 мар 2017 - 18:54

в смысле  - перепаковал бы? чем? не совсем понял.


  • 0

#9 Sego

Sego
  • Модераторы
  • 14 008 Сообщений:

Отправлено 15 мар 2017 - 21:41

FFmpeg скачай, этот файл распакуй, кинь куда нить (на рабочий можно) - https://www.dropbox...._1.bat.zip?dl=0

Его открыть в блокноте, и заменить путь к ffmpeg.exe (там прописано сейчас - D:\ffmpeg_64\bin\ffmpeg.exe - поставь свой), потом просто мувик перетаскиваешь на этот батник (*bat) и рядом с мувиком появится MPEG 4.


  • 1

#10 Зос

Зос
  • Модераторы
  • 4 280 Сообщений:

Отправлено 16 мар 2017 - 10:45

спасибо!


  • 0


0 человек читают эту тему

0 пользователей, 0 гостей, 0 скрытых пользователей

Rambler's Top100