Перейти к содержимому


!!! Только у нас на форуме !!!
Спектакли от дяди Пчёлки

для просмотра необходима регистрация
Фотография
- - - - -

Неверная длина видео про импорте

длина видео импорт

  • Please log in to reply
9 ответов в этой теме

#1 Vitassam

Vitassam
  • Участниk
  • 4 Сообщений:

Отправлено 21 апр 2012 - 15:47

Всем доброго апрельского дня.

Хочу спросить знающих людей о том, как решить проблему с импортом видео в adobe premiere pro 5.

Добавляю в проект видео, длина которого при просмотре обычным плеером 23:05.
В adobe premiere длина видео отображается как 22:45 и при этом звуковая дорожка видео ведет себя очень странно. В некоторых моментах она смещена, а в некоторым и попросту пропадает звук.
Никаких манипуляций с fps или т.п. не производил.
При импортировании видео-файла в adobe after effects, кстати, та же проблема с длиной видео.
MacBook Air 11'6 i7 4GB 256 GB hard 384 MB video.

В программе sony vegas, к слову, видео отображается как нужно.

Пожалуйста, помогите мне разобраться в этой ситуации.
  • 0

#2 Vitassam

Vitassam
  • Участниk
  • 4 Сообщений:

Отправлено 21 апр 2012 - 18:32

Вот конкретно это видео: http://svkontakte.ru...30360_159892866 (ссылка на скачку) (разрешение 720) Очень хотелось бы понять, как возможно обойти эту проблему в адобе. Конвертирование видео - не вариант, потому как на компьютере с моими характеристиками долгое (попробовал скачать какой-то конвертер и начать процесс - на двадцати отменил - долго).
  • 0

#3 nixa

nixa
  • Участник
  • 4 660 Сообщений:

Отправлено 21 апр 2012 - 23:25

"Naruto- Shippuuden 106 серия (Ancord)"

этот файл?
  • 0

#4 Vitassam

Vitassam
  • Участниk
  • 4 Сообщений:

Отправлено 21 апр 2012 - 23:59

"Naruto- Shippuuden 106 серия (Ancord)"

этот файл?


Да, верно. Ссылка правильная.
  • 0

#5 Sego

Sego
  • Модераторы
  • 12 269 Сообщений:

Отправлено 22 апр 2012 - 00:27

Vittasam - есть програмка Mediainfo , найди ее , открой в ней свой файл , оно напишет что за видео у тебя , перепиши сюда , или сделай скриншот . В Премьере посмотри установки проекта , и так же покажи их здесь в теме . Да , и каким плеером просматриваешь ....(обычный плеер)

Сообщение отредактировано Sego: 22 апр 2012 - 00:28

  • 1

#6 nixa

nixa
  • Участник
  • 4 660 Сообщений:

Отправлено 22 апр 2012 - 00:43

Общее
Полное имя : C:\Dokumente und Einstellungen\2\Desktop\Neuer Ordner\Naruto- Shippuuden 106 серия (Ancord).mp4
Формат : MPEG-4
Профиль формата : Base Media
Идентификатор кодека : isom
Размер файла : 324 Мбайт
Продолжительность : 23 м.
Общий поток : 1963 Кбит/сек
Программа кодирования : Lavf52.40.0

Видео
Идентификатор : 1
Формат : AVC
Формат/Информация : Advanced Video Codec
Профиль формата : High@L3.1
Параметр CABAC формата : Да
Параметр ReFrames формата : 3 кадра
Идентификатор кодека : avc1
Идентификатор кодека/Информация : Advanced Video Coding
Продолжительность : 23 м.
Битрейт : 1800 Кбит/сек
Ширина : 1280 пикселей
Высота : 720 пикселей
Соотношение сторон : 16:9
Режим частоты кадров : Переменный
Частота кадров : 24,644 кадров/сек
Частота кадров в оригинале : 25,000 кадров/сек
Минимальная частота кадров : 12,500 кадров/сек
Максимальная частота кадров : 25,000 кадров/сек
Цветовое пространство : YUV
Субдискретизация насыщенности : 4:2:0
Битовая глубина : 8 бит
Тип развёртки : Прогрессивная
Бит/(Пиксели*Кадры) : 0.079
Размер потока : 302 Мбайт (93%)
Библиотека кодирования : x264 core 79
Настройки программы : cabac=1 / ref=3 / deblock=1:0:0 / analyse=0x3:0x113 / me=hex / subme=7 / psy=1 / psy_rd=1.0:0.0 / mixed_ref=1 / me_range=16 / chroma_me=1 / trellis=1 / 8x8dct=1 / cqm=0 / deadzone=21,11 / chroma_qp_offset=-2 / threads=24 / nr=0 / decimate=1 / mbaff=0 / constrained_intra=0 / bframes=3 / b_pyramid=0 / b_adapt=1 / b_bias=0 / direct=1 / wpredb=32 / wpredp=2 / keyint=250 / keyint_min=25 / scenecut=40 / rc_lookahead=40 / rc=abr / mbtree=1 / bitrate=1800 / ratetol=2.2 / qcomp=0.60 / qpmin=10 / qpmax=51 / qpstep=4 / ip_ratio=1.41 / aq=1:1.00
Язык : Japanese

Аудио
Идентификатор : 2
Формат : AAC
Формат/Информация : Advanced Audio Codec
Профиль формата : LC
Идентификатор кодека : 40
Продолжительность : 23 м.
Вид битрейта : Переменный
Битрейт : 128 Кбит/сек
Каналы : 2 канала
Расположение каналов : Front: L R
Частота : 44,1 КГц
Метод сжатия : С потерями
Размер потока : 21,1 Мбайт (7%)
Язык : Russian


  • 1

#7 Sego

Sego
  • Модераторы
  • 12 269 Сообщений:

Отправлено 22 апр 2012 - 00:51

Ну так модный кодек Lavf52.40.0 , перекодировать в нормальный h264 , должно сделать быстро .
  • 0

#8 nixa

nixa
  • Участник
  • 4 660 Сообщений:

Отправлено 22 апр 2012 - 01:24

Vitassam
Конвертирование видео - не вариант, потому как на компьютере с моими характеристиками долгое (попробовал скачать какой-то конвертер и начать процесс - на двадцати отменил - долго).

ага, а монтировать AVCHD на этом компе - в самый раз!

посмотрел профиль: i7 - неслабо
извиняюсь, погорячился!

мой комп в Premiere CS3, еле тянет его.

Сообщение отредактировано nixa: 22 апр 2012 - 00:59

  • 1

#9 Lucky1978

Lucky1978
  • Участник
  • 329 Сообщений:

Отправлено 22 апр 2012 - 01:44

Как вариант, для Маковского Премьера в MPEG Streamclip пересохранить его в MOV и попробовать импортировать в Премьер. Частота кадров будет 25, а там уже смотреть дальше. В FCPX плеится что MP4, что полученный из неё MOV одинаково, со звуком вроде проблем нет.

Сообщение отредактировано Lucky1978: 22 апр 2012 - 01:47

  • 1

#10 Vitassam

Vitassam
  • Участниk
  • 4 Сообщений:

Отправлено 22 апр 2012 - 11:52

Окей, спасибо ребят. Попробую скачать mpeg streamclip (возьму на заметку).
Вчера пока что остановился на варианте конвертирования видео Any Video Converter'om - только некоторых частей видео (заранее определяю какие одна-пара частей по ~10-30 секунд мне нужны - и уже их конвертирую, указывая время начала и конца видео), пока такой вариант устраивает. Потеря качества минимальна.
Если все будет совсем туго, подключу стоящий рядом стационарный системный блок к монитору, достану клавиатуру-мышь и буду рубать на нем в Сони Вегасе xD.
  • 0





Also tagged with one or more of these keywords: длина, видео, импорт

0 человек читают эту тему

0 пользователей, 0 гостей, 0 скрытых пользователей

Rambler's Top100